Login
Username:
Password:
Remember Me:
[Signup]
[Recover Account]
Friends
BTScene
Friendly site

Free Courses Online
Friendly site

Anime RG
Friendly site

KaranPC
Friendly site

P2PDL.com
Friendly site

Free Tutorials & Courses
Friendly site
Torrent Details For "Syndicate Smasher 2017 1080p WEB-DL x264 [MW]"

Syndicate Smasher 2017 1080p WEB-DL x264 [MW]

To download this torrent, you need a BitTorrent client: Vuze or BTGuard
Download this torrent
Download using Magnet Link





Health:
Seeds: 125
Leechers: 67
Completed: 283 
Last Checked: 18-07-2018 14:33:15

Uploader Reputation points : 3870
External: Torrent




Write a Review for the Uploader:   15   Say Thanks with one good review:


Details
Name:Syndicate Smasher 2017 1080p WEB-DL x264 [MW]
Description:




General
Format                                   : Matroska
Format version                           : Version 4 / Version 2
File size                                : 1.63 GiB
Duration                                 : 1 h 37 min
Overall bit rate                         : 2 391 kb/s

Video
ID                                       : 1
Format                                   : AVC
Format/Info                              : Advanced Video Codec
Format profile                           : [email protected]
Format settings                          : CABAC / 4 Ref Frames
Format settings, CABAC                   : Yes
Format settings, RefFrames               : 4 frames
Codec ID                                 : V_MPEG4/ISO/AVC
Duration                                 : 1 h 37 min
Bit rate                                 : 2 200 kb/s
Width                                    : 1 920 pixels
Height                                   : 1 080 pixels
Display aspect ratio                     : 16:9
Frame rate mode                          : Constant
Frame rate                               : 29.970 (30000/1001) FPS
Color space                              : YUV
Chroma subsampling                       : 4:2:0
Bit depth                                : 8 bits
Scan type                                : Progressive
Bits/(Pixel*Frame)                       : 0.035
Stream size                              : 1.48 GiB (91%)
Writing library                          : x264 core 155 r2901 7d0ff22
Default                                  : Yes
Forced                                   : No

Audio
ID                                       : 2
Format                                   : AAC
Format/Info                              : Advanced Audio Codec
Format profile                           : LC
Codec ID                                 : A_AAC-2
Duration                                 : 1 h 37 min
Bit rate                                 : 224 kb/s
Channel(s)                               : 2 channels
Channel positions                        : Front: L R
Sampling rate                            : 48.0 kHz
Frame rate                               : 46.875 FPS (1024 SPF)
Compression mode                         : Lossy
Stream size                              : 157 MiB (9%)
Language                                 : English
Default                                  : Yes
Forced                                   : No

Text
ID                                       : 3
Format                                   : UTF-8
Codec ID                                 : S_TEXT/UTF8
Codec ID/Info                            : UTF-8 Plain Text
Duration                                 : 1 h 34 min
Bit rate                                 : 56 b/s
Count of elements                        : 1345
Stream size                              : 39.2 KiB (0%)
Default                                  : Yes
Forced                                   : No


Click To Enlarge Image








YouTube Video:
Category:Movies
Language:English  English
Total Size:1.63 GB
Info Hash:9765DC4346EB1D0C8F996D6649C7034B0991BACF
Added By:MovieFreak Verified UploaderMovie Pirate
Date Added:18-07-2018 07:40:10
Torrent Status:Torrent Verified


Ratings:Not Yet Rated (Log in to rate it)


Tracker:
udp://tracker.coppersurfer.tk:6969/announce

This Torrent also has backup trackers
URLSeedersLeechersCompleted
udp://tracker.coppersurfer.tk:6969/announce13843
udp://tracker.pirateparty.gr:6969/announce13843
udp://tracker.coppersurfer.tk:6969/announce13843
udp://tracker.leechers-paradise.org:6969/announce930
udp://eddie4.nl:6969/announce930
udp://tracker.tiny-vps.com:6969/announce7418
udp://9.rarbg.me:2800/announce6532
udp://9.rarbg.to:2720/announce6532
udp://public.popcorn-tracker.org:6969/announce8416
udp://open.stealth.si:80/announce8416
udp://tracker.vanitycore.co:6969/announce7419
udp://tracker.opentrackr.org:1337/announce8521
udp://bt.firebit.co.uk:6969/announce930
udp://shadowshq.yi.org:6969/announce930


File List: 



Warning! Do not Download Torrents Without a VPN!
Your IP Address is .   Location is
Your Internet Provider and Government can track your torrent Activity! Hide your IP ADDRESS with a VPN!
We strongly recommend using SpyOFF VPN to anonymize your Torrenting.It's FREE!
START YOUR FREE TRIAL NOW!


Comments
No comments still posted