Login
Username:
Password:
Remember Me:
[Signup]
[Recover Account]
Friends
BTScene
Friendly site

Free Courses Online
Friendly site

Anime RG
Friendly site

KaranPC
Friendly site

P2PDL.com
Friendly site

Free Tutorials & Courses
Friendly site
Torrent Details For "Deadpool 2 2018 1080p WEB-DL DD 5 1 x264 [MW]"

Deadpool 2 2018 1080p WEB-DL DD 5 1 x264 [MW]

To download this torrent, you need a BitTorrent client: Vuze or BTGuard
Download this torrent
Download using Magnet Link





Health:
Seeds: 515
Leechers: 120
Completed: 11,099 
Last Checked: 10-08-2018 15:23:59

Uploader Reputation points : 4408
External: Torrent



BTGuard - BitTorrent Anonymously


Write a Review for the Uploader:   20   Say Thanks with one good review:


Details
Name:Deadpool 2 2018 1080p WEB-DL DD 5 1 x264 [MW]
Description:




General
Format                                   : Matroska
Format version                           : Version 4 / Version 2
File size                                : 2.38 GiB
Duration                                 : 1 h 59 min
Overall bit rate                         : 2 847 kb/s

Video
ID                                       : 1
Format                                   : AVC
Format/Info                              : Advanced Video Codec
Format profile                           : [email protected]
Format settings                          : CABAC / 4 Ref Frames
Format settings, CABAC                   : Yes
Format settings, RefFrames               : 4 frames
Codec ID                                 : V_MPEG4/ISO/AVC
Duration                                 : 1 h 59 min
Bit rate                                 : 2 500 kb/s
Width                                    : 1 920 pixels
Height                                   : 804 pixels
Display aspect ratio                     : 2.40:1
Frame rate mode                          : Constant
Frame rate                               : 23.976 (24000/1001) FPS
Color space                              : YUV
Chroma subsampling                       : 4:2:0
Bit depth                                : 8 bits
Scan type                                : Progressive
Bits/(Pixel*Frame)                       : 0.068
Stream size                              : 2.05 GiB (86%)
Writing library                          : x264 core 155 r2901 7d0ff22
Default                                  : Yes
Forced                                   : No

Audio
ID                                       : 2
Format                                   : AC-3
Format/Info                              : Audio Coding 3
Codec ID                                 : A_AC3
Duration                                 : 1 h 59 min
Bit rate mode                            : Constant
Bit rate                                 : 384 kb/s
Channel(s)                               : 6 channels
Channel positions                        : Front: L C R, Side: L R, LFE
Sampling rate                            : 48.0 kHz
Frame rate                               : 31.250 FPS (1536 SPF)
Bit depth                                : 16 bits
Compression mode                         : Lossy
Stream size                              : 328 MiB (13%)
Language                                 : English
Service kind                             : Complete Main
Default                                  : Yes
Forced                                   : No

Text
ID                                       : 3
Format                                   : UTF-8
Codec ID                                 : S_TEXT/UTF8
Codec ID/Info                            : UTF-8 Plain Text
Duration                                 : 1 h 58 min
Bit rate                                 : 90 b/s
Count of elements                        : 2152
Stream size                              : 77.9 KiB (0%)
Language                                 : English
Default                                  : Yes
Forced                                   : No


http://pichub.site/image/OQGfT
http://pichub.site/image/OQUoD
http://pichub.site/image/OQvWZ
http://pichub.site/image/OQ0Vg
http://pichub.site/image/OQLUI
http://pichub.site/image/OQr1X

YouTube Video:
Category:Movies
Language:English  English
Total Size:2.38 GB
Info Hash:DCF6944DCEF53AA715F87EA66A95370C2E737B2C
Added By:MovieFreak Verified UploaderMovie Pirate
Date Added:07-08-2018 19:46:22
Torrent Status:Torrent Verified


Ratings:Not Yet Rated (Log in to rate it)


Tracker:
udp://tracker.coppersurfer.tk:6969/announce

This Torrent also has backup trackers
URLSeedersLeechersCompleted
udp://tracker.coppersurfer.tk:6969/announce50111,023
udp://tracker.pirateparty.gr:6969/announce50111,023
udp://tracker.coppersurfer.tk:6969/announce50111,023
udp://tracker.leechers-paradise.org:6969/announce4191,075
udp://eddie4.nl:6969/announce4191,075
udp://tracker.tiny-vps.com:6969/announce249299
udp://9.rarbg.me:2800/announce3021,006
udp://9.rarbg.to:2720/announce3021,006
udp://public.popcorn-tracker.org:6969/announce319399
udp://open.stealth.si:80/announce2510284
udp://tracker.vanitycore.co:6969/announce2710309
udp://tracker.opentrackr.org:1337/announce349427
udp://bt.firebit.co.uk:6969/announce4191,075
udp://shadowshq.yi.org:6969/announce4191,075


File List: 



Warning! Do not Download Torrents Without a VPN!
Your IP Address is .   Location is
Your Internet Provider and Government can track your torrent Activity! Hide your IP ADDRESS with a VPN!
We strongly recommend using SpyOFF VPN to anonymize your Torrenting.It's FREE!
START YOUR FREE TRIAL NOW!


Comments
No comments still posted